ccibusiness-lyonmetropole
» » England Dan Seals - Stones

England Dan Seals - Stones FLAC album

England Dan Seals - Stones FLAC album
Performer: England Dan Seals
Title: Stones
Released: 29 Sep 1999
Label: Atlantic
Country: Japan
Style: Country Rock
Catalog #: AMCY-6044
Genre: Rock / Blues / World and Folk
Rating: 4.4
Votes: 656
Formats: CD, Album
FLAC size: 2192 mb
MP3 size: 2738 mb

Tracklist

1When It's Over
2Love Me Like The Last Time
3Stones (Dig A Little Deeper)
4You Could've Been The One
5Holdin' Out For Love
6Take You Home
7How Do I Survive
8Getting To The Point
9Lullaby
10Late At Night

Credits

  • Liner Notes金澤寿和

Versions

CategoryArtistTitle (Format)LabelCategoryCountryYear
SD 19275England Dan Seals Stones ‎(LP, Album, Spe)AtlanticSD 19275US1980
WOU-9275England Dan Seals Stones ‎(CD, Album, RE, RM)Wounded Bird RecordsWOU-9275US2006
SD 19275England Dan Seals Stones ‎(LP, Album)AtlanticSD 19275Australia & New Zealand1980
AMCY-6044England Dan Seals Stones ‎(CD, Album)AtlanticAMCY-6044Japan1999
P-10887AEngland Dan Seals Stones ‎(LP, Album)AtlanticP-10887AJapan1980
CategoryArtistTitle (Format)LabelCategoryCountryYear
SD 19275England Dan Seals Stones ‎(LP, Album, Spe)AtlanticSD 19275US1980
WOU-9275England Dan Seals Stones ‎(CD, Album, RE, RM)Wounded Bird RecordsWOU-9275US2006
SD 19275England Dan Seals Stones ‎(LP, Album)AtlanticSD 19275Australia & New Zealand1980
P-10887AEngland Dan Seals Stones ‎(LP, Album)AtlanticP-10887AJapan1980
XSD 19275England Dan Seals Stones ‎(LP, Album)AtlanticXSD 19275Canada1980

Barcodes

  • Barcode: 4 988029 604446
  • Barcode (Scanned): 4988029604446
  • Barcode: 6 64140 92752 0

Companies

  • Phonographic Copyright (p) – WEA International Inc.
  • Copyright (c) – Atlantic Recording Corporation
  • Manufactured By – East West Japan Inc.

Video

Tane
foobar2000 1.3.17 / Dynamic Range Meter 1.1.1
log date: 2019-02-06 20:52:30

--------------------------------------------------------------------------------
Analyzed: England Dan Seals / Stones [JP 1999 CD]
--------------------------------------------------------------------------------

DR Peak RMS Duration Track
--------------------------------------------------------------------------------
DR13 0.00 dB -16.93 dB 4:42 01-Stones (Dig A Little Deeper)
DR14 -2.72 dB -21.84 dB 3:27 02-Late At Night
DR13 -1.35 dB -17.51 dB 3:55 03-Love Me Like The Last Time
DR12 -2.11 dB -17.78 dB 3:55 04-Getting To The Point
DR13 0.00 dB -15.90 dB 3:52 05-How Do I Survive
DR12 -1.29 dB -16.62 dB 3:41 06-Holdin' Out For Love
DR14 -0.57 dB -17.49 dB 3:10 07-You Could've Been The One
DR14 -1.66 dB -18.44 dB 4:36 08-Take You Home
DR12 -0.42 dB -17.08 dB 2:50 09-When It's Over
DR11 -5.49 dB -20.91 dB 2:33 10-Lullaby
--------------------------------------------------------------------------------

Number of tracks: 10
Official DR value: DR13

Samplerate: 44100 Hz
Channels: 2
Bits per sample: 16
Bitrate: 706 kbps
Codec: ALAC
================================================================================
ccibusiness-lyonmetropole.fr
© All right reserved. 2015-2020
Contacts | Privacy Policy | DMCA
Music albums are provided for reference only