ccibusiness-lyonmetropole
» » Dan Siegel - Going Home

Dan Siegel - Going Home FLAC album

Dan Siegel - Going Home FLAC album
Performer: Dan Siegel
Title: Going Home
Released: 1991
Label: Epic Associated
Country: US
Style: Smooth Jazz, Contemporary Jazz
Catalog #: ZK 46787
Genre: Jazz
Rating: 4.6
Votes: 452
Formats: CD, Album
FLAC size: 2272 mb
MP3 size: 2154 mb

Tracklist

1Dark Rain
Written-By – Dan Siegel
2The Last Dance
Written-By – Dan Siegel
3Going Home
Written-By – Dan Siegel
4Sojourn
Written-By – Dan Siegel
5The Untraveled Path
Written-By – Dan Siegel
6Dee-Ah
Written-By – Dan Siegel
7Don't Let Go
Written-By – Dan Siegel
8Can't Remember
Written-By – Aime Ulrich Rankin, Dan Siegel
9Next To You
Written-By – Aime Ulrich Rankin, Dan Siegel
10Searching
Written-By – Dan Siegel, Marc Jordan

Credits

  • Piano, Synthesizer, Keyboards, PercussionDan Siegel
  • ProducerDan Siegel
  • VocalsDan Siegel (tracks: 1), Kenny Rankin (tracks: 3, 7, 9)

Versions

CategoryArtistTitle (Format)LabelCategoryCountryYear
ZT 46787Dan Siegel Going Home ‎(Cass)Epic AssociatedZT 46787USUnknown
SICP 4939Dan Siegel Going Home ‎(CD, Album, Ltd, RE, RM)EpicSICP 4939Japan2016

Barcodes

  • Barcode (Text): 0 7464-46787-2
  • Barcode (Scanned): 074644678727

Video

one life
foobar2000 1.3.17 / Dynamic Range Meter 1.1.1
log date: 2018-04-04 19:32:43

--------------------------------------------------------------------------------
Analyzed: Dan Siegel / Going Home
--------------------------------------------------------------------------------

DR Peak RMS Duration Track
--------------------------------------------------------------------------------
DR15 0.00 dB -17.77 dB 3:53 01-Dee-Ah
DR13 0.00 dB -16.96 dB 4:24 02-Going Home
DR14 0.00 dB -18.29 dB 3:32 03-Next To You
DR14 0.00 dB -18.66 dB 4:41 04-Dark Rain
DR15 0.00 dB -17.21 dB 4:53 05-Don't Let Go
DR13 0.00 dB -16.05 dB 4:05 06-The Untraveled Path
DR12 -0.41 dB -17.41 dB 2:51 07-Can't Remember
DR13 0.00 dB -16.57 dB 4:36 08-Sojourn
DR14 -0.16 dB -17.43 dB 4:21 09-Searching
DR13 0.00 dB -16.45 dB 3:48 10-The Last Dance
--------------------------------------------------------------------------------

Number of tracks: 10
Official DR value: DR14

Samplerate: 44100 Hz
Channels: 2
Bits per sample: 16
Bitrate: 863 kbps
Codec: ALAC
================================================================================
ccibusiness-lyonmetropole.fr
© All right reserved. 2015-2021
Contacts | Privacy Policy | DMCA
Music albums are provided for reference only